[Judas] Oregairu - S03E04 1080p
#1
[Judas] Oregairu - S03E04
[Image: RXiT1R5.jpghttp:]
General Video Audio Subtitles
Format: matroska
File size: 309 MB
Duration: 24 min 5 s
Bit rate: 1797kb/s
Format: hevc
Codec: v_mpegh/iso/hevc
Bit rate: 1570kb/s
Dimensions: 1920x1080 @ 16:9
Frame rate: 23.976 (24000/1001) fps
Format: e-ac-3
Codec: a_eac3
Bit rate: 224kb/s
Audio channels: 2.0ch
Stream size: 38.6 MB


Code:

General
Complete name                            : [Judas] Oregairu - S03E04.mkv
Format                                  : Matroska
Format version                          : Version 4
File size                                : 309 MiB
Duration                                : 24 min 5 s
Overall bit rate                        : 1 797 kb/s
Encoded date                            : UTC 2020-07-31 01:07:13
Writing application                      : mkvmerge v47.0.0 ('Black Flag') 64-bit
Writing library                          : libebml v1.3.10 + libmatroska v1.5.2 / Lavf58.41.100

Video
ID                                      : 1
Format                                  : HEVC
Format/Info                              : High Efficiency Video Coding
Format profile                          : Main [email protected]@Main
Codec ID                                : V_MPEGH/ISO/HEVC
Duration                                : 24 min 4 s
Bit rate                                : 1 570 kb/s
Width                                    : 1 920 pixels
Height                                  : 1 080 pixels
Display aspect ratio                    : 16:9
Frame rate mode                          : Constant
Frame rate                              : 23.976 (24000/1001) FPS
Color space                              : YUV
Chroma subsampling                      : 4:2:0
Bit depth                                : 10 bits
Bits/(Pixel*Frame)                      : 0.032
Stream size                              : 270 MiB (87%)
Title                                    : [Judas] x265 10b
Writing library                          : x265 3.2+38-fdbd4e4a2aff:[Windows][GCC 9.2.1][64 bit] 10bit
Encoding settings                        : cpuid=1111039 / frame-threads=2 / numa-pools=28 / wpp / no-pmode / no-pme / no-psnr / no-ssim / log-level=0 / input-csp=1 / input-res=1920x1080 / interlace=0 / total-frames=0 / level-idc=0 / high-tier=1 / uhd-bd=0 / ref=6 / no-allow-non-conformance / no-repeat-headers / annexb / no-aud / no-hrd / info / hash=0 / no-temporal-layers / open-gop / min-keyint=23 / keyint=250 / gop-lookahead=0 / bframes=8 / b-adapt=2 / b-pyramid / bframe-bias=0 / rc-lookahead=20 / lookahead-slices=4 / scenecut=40 / hist-scenecut=0 / radl=0 / no-splice / no-intra-refresh / ctu=64 / min-cu-size=8 / no-rect / no-amp / max-tu-size=32 / tu-inter-depth=1 / tu-intra-depth=1 / limit-tu=0 / rdoq-level=2 / dynamic-rd=0.00 / no-ssim-rd / signhide / no-tskip / nr-intra=0 / nr-inter=0 / no-constrained-intra / no-strong-intra-smoothing / max-merge=3 / limit-refs=3 / limit-modes / me=2 / subme=7 / merange=57 / temporal-mvp / no-frame-dup / no-hme / weightp / weightb / no-analyze-src-pics / deblock=1:-1 / no-sao / no-sao-non-deblock / rd=4 / selective-sao=0 / no-early-skip / rskip / no-fast-intra / no-tskip-fast / no-cu-lossless / no-b-intra / no-splitrd-skip / rdpenalty=0 / psy-rd=1.30 / psy-rdoq=2.80 / no-rd-refine / no-lossless / cbqpoffs=-1 / crqpoffs=-1 / rc=crf / crf=19.0 / qcomp=0.60 / qpstep=4 / stats-write=0 / stats-read=0 / ipratio=1.40 / pbratio=1.30 / aq-mode=4 / aq-strength=0.80 / no-cutree / zone-count=0 / no-strict-cbr / qg-size=32 / no-rc-grain / qpmax=69 / qpmin=0 / no-const-vbv / sar=0 / overscan=0 / videoformat=5 / range=0 / colorprim=2 / transfer=2 / colormatrix=2 / chromaloc=0 / display-window=0 / cll=0,0 / min-luma=0 / max-luma=1023 / log2-max-poc-lsb=8 / vui-timing-info / vui-hrd-info / slices=1 / no-opt-qp-pps / no-opt-ref-list-length-pps / no-multi-pass-opt-rps / scenecut-bias=0.05 / hist-threshold=0.01 / no-opt-cu-delta-qp / no-aq-motion / no-hdr10 / no-hdr10-opt / no-dhdr10-opt / no-idr-recovery-sei / analysis-reuse-level=0 / analysis-save-reuse-level=0 / analysis-load-reuse-level=0 / scale-factor=0 / refine-intra=0 / refine-inter=0 / refine-mv=1 / refine-ctu-distortion=0 / no-limit-sao / ctu-info=0 / no-lowpass-dct / refine-analysis-type=0 / copy-pic=1 / max-ausize-factor=1.0 / no-dynamic-refine / no-single-sei / hevc-aq / no-svt / no-field / qp-adaptation-range=3.00 / no-scenecut-aware-qpconformance-window-offsets / right=0 / bottom=0
Default                                  : No
Forced                                  : No
Color range                              : Limited

Audio
ID                                      : 2
Format                                  : E-AC-3
Format/Info                              : Enhanced AC-3
Commercial name                          : Dolby Digital Plus
Codec ID                                : A_EAC3
Duration                                : 24 min 5 s
Bit rate mode                            : Constant
Bit rate                                : 224 kb/s
Channel(s)                              : 2 channels
Channel layout                          : L R
Sampling rate                            : 48.0 kHz
Frame rate                              : 31.250 FPS (1536 SPF)
Compression mode                        : Lossy
Stream size                              : 38.6 MiB (12%)
Title                                    : Japanese
Language                                : Japanese
Service kind                            : Complete Main
Default                                  : Yes
Forced                                  : No

Text #1
ID                                      : 3
Format                                  : ASS
Codec ID                                : S_TEXT/ASS
Codec ID/Info                            : Advanced Sub Station Alpha
Duration                                : 23 min 57 s
Bit rate                                : 138 b/s
Count of elements                        : 328
Compression mode                        : Lossless
Stream size                              : 24.3 KiB (0%)
Title                                    : English
Language                                : English
Default                                  : No
Forced                                  : No

Text #2
ID                                      : 4
Format                                  : ASS
Codec ID                                : S_TEXT/ASS
Codec ID/Info                            : Advanced Sub Station Alpha
Duration                                : 23 min 57 s
Bit rate                                : 129 b/s
Count of elements                        : 302
Compression mode                        : Lossless
Stream size                              : 22.8 KiB (0%)
Title                                    : Brazilian Portuguese
Language                                : Portuguese
Default                                  : No
Forced                                  : No

Text #3
ID                                      : 5
Format                                  : ASS
Codec ID                                : S_TEXT/ASS
Codec ID/Info                            : Advanced Sub Station Alpha
Duration                                : 23 min 57 s
Bit rate                                : 114 b/s
Count of elements                        : 319
Compression mode                        : Lossless
Stream size                              : 20.1 KiB (0%)
Title                                    : Spanish
Language                                : Spanish
Default                                  : No
Forced                                  : No





[Image: MKr98ff.pnghttp:]
Download

Code:
https://uptobox.com/75h6rovugile



Users browsing this thread: 1 Guest(s)